#TITLE:Over The Rave;
#SUBTITLE:;
#ARTIST:Takoyaki;
#TITLETRANSLIT:;
#SUBTITLETRANSLIT:;
#ARTISTTRANSLIT:;
#CREDIT:;
#BANNER:overtherave.png;
#BACKGROUND:overtherave-bg.png;
#LYRICSPATH:;
#CDTITLE:!otterTitle.png;
#MUSIC:Over The Rave.mp3;
#OFFSET:-0.777;
#SAMPLESTART:84.767;
#SAMPLELENGTH:11.538;
#SELECTABLE:YES;
#BPMS:0.000=159.940;
#STOPS:;
#BGCHANGES:;
// cache tags:
#FIRSTBEAT:13.500;
#LASTBEAT:328.000;
#SONGFILENAME:Songs/Music V.I.P ^_^/Over The Rave- Otter/otr.sm;
#HASMUSIC:1;
#HASBANNER:1;
#MUSICLENGTH:133.284;
// end cache tags

//---------------dance-single - ----------------
#NOTES:
     dance-single:
     :
     Hard:
     12:
     0.954,1.000,0.518,0.090,1.000,809.000,69.000,12.000,0.000,3.000:
0000
0000
0000
0000
,
0000
0000
0000
0000
,
0000
0000
0000
0000
,
0000
0000
0000
0000
0000
0000
1000
0100
0010
0100
1000
0000
0010
0000
0100
0000
,
1001
0100
0101
0010
1010
0100
1100
0010
,
0011
0000
1000
0000
1001
0000
1000
0100
0000
1000
0010
0000
0100
0000
0001
0000
,
0101
0010
1100
0010
0101
1000
0011
1000
,
1000
0000
0100
0000
1000
0000
0010
0000
0100
0000
0001
0000
0010
0000
0100
0000
1000
0001
0100
0000
0010
0000
1000
0000
0100
0000
0010
0000
0001
0000
0010
0000
,
0100
0000
0001
0000
0100
0000
0010
1000
0000
1100
0000
0010
0001
0000
0101
0000
,
0010
0000
0001
0000
1000
0000
0010
1000
0000
0101
0000
1000
0100
0000
0011
0000
,
0100
0000
0001
0000
0010
0000
0100
1000
0000
1010
0000
0100
0001
0000
0011
0000
,
1000
0000
0100
0000
1000
0000
0001
0010
0000
0101
0000
0100
0010
0000
1010
0000
,
1000
0000
0100
0000
0010
0000
0001
0010
0000
0100
0000
1000
0010
0000
0100
0000
,
0001
0000
0010
0000
0001
0000
0100
0010
0000
1000
0000
0100
0010
0000
0001
0000
,
0100
0000
0001
0000
0010
0000
0001
0100
0000
0010
0000
0100
0001
0000
1000
0000
,
0100
0000
0010
0000
0100
0000
0010
0000
0001
0000
0010
0000
0001
0000
0100
0000
0010
1000
0100
0000
0010
0000
0001
0000
0100
0000
0010
0000
0100
0000
0010
0000
,
1000
0000
0100
0000
1000
0000
0010
0000
0100
0000
0001
0100
0000
0010
1000
0100
,
0010
0000
0001
0100
0001
0010
0001
0100
1010
0000
1100
0000
0110
0000
0011
0000
,
0100
0000
0010
0000
1000
0000
0100
0000
0010
0000
1000
0010
0100
0001
0100
0010
,
1000
0000
1000
0100
0010
0001
0010
0100
1000
0010
0100
0001
0100
0010
1000
0100
,
0010
0000
0001
0000
1000
0000
0100
0000
0010
0000
0001
0010
0000
0100
1000
0100
,
0010
0000
0001
0100
0010
1000
0001
0100
1010
0000
0110
0000
0101
0000
0110
0000
,
1000
0000
0100
0000
1000
0000
0010
0000
0100
0000
0001
1000
0100
1000
0010
1000
,
0100
0000
0001
0010
0001
1000
0001
0100
0001
0010
0001
1000
0002
0000
0003
0000
,
1000
0000
0010
0000
1000
0000
0100
0000
1000
0000
0010
0100
0000
0001
0010
0100
,
1000
0000
0010
0100
0001
0100
0001
1000
1010
0000
0101
0000
0011
0000
1100
0000
,
0010
0000
1000
0000
0001
0000
0100
0000
0010
0000
1000
0100
1000
0010
1000
0001
,
1000
0000
0001
0100
0010
0100
0001
0100
0010
0100
0001
0100
0010
0100
0001
0100
,
0010
0000
1000
0000
0001
0000
0100
0000
0010
0000
1000
0100
0000
1000
0010
1000
,
0010
0000
0100
0001
0100
0001
0010
0001
0110
0000
1100
0000
1010
0000
0101
0000
,
1000
0000
0010
0000
1000
0000
0100
0000
0010
0000
0100
1000
0100
0010
0100
1000
,
0100
0000
0010
0001
0100
0001
0010
0100
1000
0010
1000
0100
1000
0000
0000
0000
,
2200
0000
0000
0000
0002
0000
0000
3303
,
1100
1010
0101
1100
,
0000
0010
0001
0100
,
0010
0000
0101
0000
,
1000
0000
0100
0000
0010
0000
0100
0000
1000
0010
0000
0100
0000
0001
1000
0000
,
0001
0000
0100
0000
0010
0000
0100
0000
0001
0010
0000
0100
0000
1000
0001
0000
,
1000
0000
0100
0000
0010
0000
0001
0000
0100
0001
0000
0010
0000
0100
1000
0000
,
0001
0100
0010
1000
0010
0100
0001
0010
0100
1000
0100
0010
0001
0000
0000
0000
,
2200
0000
0000
0000
,
0000
0000
0000
0000
3300
0000
1000
0000
0000
0100
0000
0000
0010
0000
0001
0000
,
0101
0000
0000
0000
0000
0000
0001
0100
0000
0001
0010
0000
0100
0000
1000
0000
,
0001
0100
0000
0100
0010
0000
0010
1000
0000
0100
0000
0010
0001
0000
0100
0000
,
2020
0000
0000
0000
,
0000
0000
0000
0000
3030
0000
0001
0000
0000
0100
0000
0000
0010
0000
1000
0000
,
1100
0000
0011
0000
,
1100
0000
1010
0000
1000
0100
0020
0030
,
0100
1000
0010
0100
0001
0100
0010
1000
0100
0010
0001
0010
0100
1000
0010
1000
,
0100
0010
0001
0100
0001
0010
0100
1000
0001
0100
0010
1000
0100
1000
0010
1000
,
0100
1000
0010
0100
0001
0010
0001
0100
0001
0010
0001
0100
0001
0010
0001
0100
,
0010
1000
0000
1000
0100
0000
0010
0001
0000
0100
0000
0010
1000
0000
0100
0000
,
1000
0010
0100
0001
1000
0100
0010
0100
1000
0010
0100
0001
0100
0010
0100
0001
,
1000
0100
1000
0001
1000
0010
1000
0100
0010
0001
1000
0001
0100
0001
0010
0001
,
1000
0001
0100
0010
1000
0100
1000
0010
1000
0100
0010
0001
0010
0100
1000
0001
,
0100
0010
1000
0010
0100
0001
1000
0100
0010
0001
0010
0100
1000
0000
0000
0000
,
1000
0000
0100
0000
1000
0000
0010
0000
0100
0000
0001
0100
0000
0010
1000
0100
,
0010
0000
0001
0100
0001
0010
0001
0100
1010
0000
1100
0000
0110
0000
0011
0000
,
0100
0000
0010
0000
1000
0000
0100
0000
0010
0000
1000
0010
0100
0001
0100
0010
,
1000
0000
1000
0100
0010
0001
0010
0100
1000
0010
0100
0001
0100
0010
1000
0100
,
0010
0000
0001
0000
1000
0000
0100
0000
0010
0000
0001
0010
0000
0100
1000
0100
,
0010
0000
0001
0100
0010
1000
0001
0100
1010
0000
0110
0000
0101
0000
0110
0000
,
1000
0000
0100
0000
1000
0000
0010
0000
0100
0000
0001
1000
0100
1000
0010
1000
,
0100
0000
0001
0010
0001
1000
0001
0100
0001
0010
0001
1000
0002
0000
0003
0000
,
1000
0000
0010
0000
1000
0000
0100
0000
1000
0000
0010
0100
0000
0001
0010
0100
,
1000
0000
0010
0100
0001
0100
0001
1000
1010
0000
0101
0000
0011
0000
1100
0000
,
0010
0000
1000
0000
0001
0000
0100
0000
0010
0000
1000
0100
1000
0010
1000
0001
,
1000
0000
0001
0100
0010
0100
0001
0100
0010
0100
0001
0100
0010
0100
0001
0100
,
0010
0000
1000
0000
0001
0000
0100
0000
0010
0000
1000
0100
0000
1000
0010
1000
,
0010
0000
0100
0001
0100
0001
0010
0001
0110
0000
1100
0000
1010
0000
0101
0000
,
1000
0000
0010
0000
1000
0000
0100
0000
0010
0000
0100
1000
0100
0010
0100
1000
,
0100
0000
0010
0001
0100
0001
0010
0100
1000
0010
1000
0100
1000
0000
0000
0000
,
1000
0000
0100
0000
0010
0000
0100
0000
1000
0010
0000
0100
0000
0001
1000
0000
,
0001
0000
0100
0000
0010
0000
0100
0000
0001
0010
0000
0100
0000
1000
0001
0000
,
1000
0000
0100
0000
0010
0000
0001
0000
0100
0000
0001
0010
0100
1000
0100
0010
,
0001
0100
0010
1000
0010
0100
0001
0010
0100
1000
0100
0010
0001
0100
0001
0000
,
0010
0000
0100
0000
1000
0000
0010
0000
0100
0001
0000
1000
0000
0010
0100
0000
,
0010
0000
0100
0000
0001
0000
0010
0000
0100
1000
0000
0001
0000
0010
0100
0000
,
0010
0000
0001
0000
0100
0000
0010
0000
1000
0000
0100
0010
0001
0010
0100
1000
,
0100
0000
0010
0001
0100
0010
0100
0001
0100
0010
1000
0100
0010
0100
1000
0100
,
0010
0001
0010
0100
1000
0100
0010
0001
0100
0010
1000
0100
0010
0001
0100
0010
,
0101
0011
0000
0110
0000
1100
0000
1010
0202
0000
0000
0000
1000
0000
0000
0000
,
1303
0000
0000
0000
;
